<?xml version="1.0" standalone="no"?>
<!DOCTYPE svg PUBLIC "-//W3C//DTD SVG 1.1//EN" "http://www.w3.org/Graphics/SVG/1.1/DTD/svg11.dtd" >
<svg xmlns="http://www.w3.org/2000/svg">
<metadata>Generated by IcoMoon</metadata>
<defs>
<font id="opencart" horiz-adv-x="1024">
<font-face units-per-em="1024" ascent="960" descent="-64" />
<missing-glyph horiz-adv-x="1024" />
<glyph unicode="&#x20;" horiz-adv-x="512" d="" />
<glyph unicode="&#xe900;" glyph-name="account-details" d="M512 898.152c-248.618 0-450.158-201.53-450.158-450.156 0-248.61 201.54-450.148 450.158-450.148s450.158 201.54 450.158 450.148c0 248.628-201.54 450.156-450.158 450.156zM512 38.77c-101.888 0-194.846 37.448-266.482 99.034 55.152 48.238 81.506 61.464 142.394 88.36 70.536 31.152 94.536 86.326 65.86 151.448-5.156 11.69-11.148 22.518-17.484 33.968-21.76 39.246-47.058 83.726-47.058 185.404 0 120.232 57.088 121.17 102.428 121.93 32.172 0.55 47.876 6.096 60.464 10.552 8.414 3.008 13.488 4.776 22.762 4.776 37.906 0 79.708-37.408 79.708-142.374 0-105.876-15.866-131.922-40.024-175.052-6.354-11.33-13.248-23.64-20.522-38.406-14.086-28.596-16.944-55.372-8.494-79.63 10.852-31.090 39.086-56.548 88.842-80.086 40.784-19.264 83.544-56.91 106.506-78.692-71.956-62.866-165.852-101.232-268.9-101.232zM810.372 168.538c-24.456 23.356-71.554 65-118.452 87.18-38.666 18.244-60.826 36.768-67.74 56.53-4.756 13.708-2.636 29.434 6.554 48.040 6.934 14.066 13.488 25.756 19.542 36.526 25.518 45.58 45.238 78.482 45.238 195.056 0 174.472-100.708 183.294-120.63 183.294-16.328 0-26.54-3.606-36.428-7.104-10.81-3.844-22-7.812-47.478-8.242-46.1-0.76-142.674-2.358-142.674-162.834 0-112.28 29.214-163.824 52.194-205.248 5.876-10.61 11.43-20.658 15.828-30.652 19.542-44.318 5.274-75.332-44.94-97.472-63.422-28.052-93.296-42.638-155.602-97.452-69.858 73.414-113.018 172.504-113.018 281.838 0 226.018 183.216 409.234 409.234 409.234s409.234-183.216 409.234-409.234c0-108.176-42.302-206.288-110.862-279.46z" />
<glyph unicode="&#xe901;" glyph-name="account-password" d="M512 366.152c-45.2 0-81.846-36.646-81.846-81.846 0-21.024 8.142-39.986 21.16-54.472-0.27-2.296-0.7-4.554-0.7-6.912 0-33.91 27.476-61.386 61.386-61.386s61.384 27.476 61.384 61.386c0 2.358-0.44 4.616-0.7 6.912 13.010 14.506 21.162 33.45 21.162 54.472 0.002 45.2-36.646 81.846-81.846 81.846zM532.46 249.056v-26.134c0-11.31-9.17-20.462-20.46-20.462s-20.462 9.152-20.462 20.462v26.134c-12.18 7.074-20.462 20.142-20.462 35.25 0 22.58 18.334 40.924 40.924 40.924 22.58 0 40.924-18.344 40.924-40.924 0-15.106-8.294-28.176-20.464-35.25zM757.54 529.846v122.77c0 135.598-109.942 245.542-245.54 245.542-135.6 0-245.542-109.942-245.542-245.542v-122.77c-45.2 0-81.846-36.648-81.846-81.846v-368.31c0-45.204 36.648-81.848 81.846-81.848h491.080c45.202 0 81.85 36.644 81.85 81.848v368.31c0 45.2-36.648 81.846-81.848 81.846zM307.382 652.618c0 112.99 91.608 204.616 204.618 204.616 113.020 0 204.618-91.626 204.618-204.616v-122.77h-409.236v122.77zM798.464 79.69c0-22.58-18.344-40.924-40.926-40.924h-491.080c-22.59 0-40.922 18.344-40.922 40.924v368.31c0 22.58 18.334 40.922 40.922 40.922h491.080c22.582 0 40.926-18.342 40.926-40.922v-368.31z" />
<glyph unicode="&#xe902;" glyph-name="account-showcase" d="M368.768 366.152h-122.77c-11.308 0-20.46-9.172-20.46-20.46v-122.77c0-11.31 9.152-20.462 20.46-20.462h122.77c11.31 0 20.462 9.152 20.462 20.462v122.77c0 11.288-9.152 20.46-20.462 20.46zM348.306 243.38h-81.846v81.85h81.846v-81.85zM778.002 366.152h-122.772c-11.308 0-20.46-9.172-20.46-20.46v-122.77c0-11.31 9.152-20.462 20.46-20.462h122.772c11.31 0 20.462 9.152 20.462 20.462v122.77c0 11.288-9.152 20.46-20.462 20.46zM757.54 243.38h-81.846v81.85h81.846v-81.85zM941.698 120.612h-20.462v532.006h20.462c11.308 0 20.46 9.142 20.46 20.46 0 11.32-9.152 20.462-20.46 20.462h-20.462v81.846c0 22.588-18.344 40.924-40.924 40.924h-736.624c-22.62 0-40.922-18.336-40.922-40.924v-81.846h-20.462c-11.31 0-20.462-9.142-20.462-20.462s9.152-20.46 20.462-20.46h20.462v-532.006h-20.462c-11.31 0-20.462-9.17-20.462-20.46 0-11.312 9.152-20.46 20.462-20.46h859.394c11.308 0 20.46 9.148 20.46 20.46 0 11.29-9.152 20.46-20.46 20.46zM552.924 120.612h-81.848v204.62h81.848v-204.62zM880.31 120.612h-286.462v225.080c0 11.29-9.152 20.46-20.462 20.46h-122.772c-11.308 0-20.46-9.172-20.46-20.46v-225.080h-286.466v437.45c15.006-17.166 36.808-28.216 61.386-28.216s46.378 11.050 61.384 28.216c15.006-17.166 36.808-28.216 61.386-28.216s46.378 11.050 61.386 28.216c15.006-17.166 36.806-28.216 61.382-28.216 24.58 0 46.38 11.050 61.386 28.216 15.008-17.166 36.804-28.216 61.384-28.216s46.378 11.050 61.384 28.216c15.008-17.166 36.808-28.216 61.386-28.216 24.576 0 46.376 11.050 61.382 28.216 15.008-17.166 36.806-28.216 61.386-28.216 24.578 0 46.378 11.050 61.384 28.216v-437.45zM164.15 611.694v40.922h81.846v-40.922c0-22.592-18.342-40.924-40.922-40.924-22.618 0-40.924 18.332-40.924 40.924zM286.922 611.694v40.922h81.846v-40.922c0-22.592-18.344-40.924-40.922-40.924-22.622 0-40.924 18.332-40.924 40.924zM409.692 611.694v40.922h81.846v-40.922c0-22.592-18.344-40.924-40.924-40.924-22.62 0-40.922 18.332-40.922 40.924zM532.46 611.694v40.922h81.848v-40.922c0-22.592-18.344-40.924-40.924-40.924-22.62 0-40.924 18.332-40.924 40.924zM655.23 611.694v40.922h81.848v-40.922c0-22.592-18.342-40.924-40.922-40.924-22.62 0-40.926 18.332-40.926 40.924zM778.002 611.694v40.922h81.848v-40.922c0-22.592-18.346-40.924-40.924-40.924-22.62 0-40.924 18.332-40.924 40.924zM880.31 693.54h-736.622v81.846h736.622v-81.846z" />
<glyph unicode="&#xe903;" glyph-name="cloud-billing" d="M798.464 898.178h-572.928c-45.2 0-81.848-36.648-81.848-81.846v-736.622c0-45.202 36.648-81.888 81.848-81.888h572.928c45.2 0 81.846 36.688 81.846 81.888v736.622c0 45.198-36.646 81.846-81.846 81.846zM634.77 857.252h81.848v-143.23l-40.924 40.922-40.924-40.922v143.23zM307.382 38.784h-81.846c-22.58 0-40.924 18.306-40.924 40.926v736.622c0 22.58 18.344 40.922 40.924 40.922h81.846v-818.47zM839.388 79.708c0-22.62-18.344-40.926-40.924-40.926h-450.16v818.47h245.542v-245.54l81.846 81.846 81.846-81.846v245.54h40.926c22.58 0 40.924-18.342 40.924-40.922v-736.622z" />
<glyph unicode="&#xe904;" glyph-name="cloud-invoice" d="M471.076 693.54h-40.922v-204.618h40.922v204.618zM266.458 693.54h-40.922v-204.618h40.922v204.618zM389.23 693.54h-81.848v-204.618h81.848v204.618zM634.77 693.54h-40.922v-204.618h40.922v204.618zM552.924 693.54h-40.924v-204.618h40.924v204.618zM512 243.38h-286.464v-40.922h286.464v40.922zM859.85 898.158h-532.006c-11.31 0-20.462-9.172-20.462-20.462v-61.384h40.922v40.922h491.084v-673.738l-67.38 53.892c-3.698 3.714-8.812 5.992-14.468 5.992v-49.394l1.6 1.598 86.244-68.976c3.698-3.698 8.812-5.996 14.466-5.996 11.31 0 20.46 9.152 20.46 20.46v736.624c0 11.29-9.15 20.462-20.46 20.462zM430.154 407.074h-204.618v-40.922h204.618v40.922zM696.156 775.386h-532.006c-11.308 0-20.462-9.15-20.462-20.462v-736.622c0-11.308 9.154-20.46 20.462-20.46 5.656 0 10.772 2.28 14.468 5.994l86.242 68.978 68.98-68.978c3.698-3.698 8.812-5.994 14.466-5.994 5.656 0 10.792 2.296 14.468 5.994l67.38 67.378 67.378-67.378c3.698-3.698 8.812-5.994 14.468-5.994 5.654 0 10.77 2.28 14.466 5.994l68.98 68.978 86.242-68.978c3.696-3.714 8.81-5.994 14.466-5.994 11.308 0 20.46 9.152 20.46 20.46v736.622c0.004 11.312-9.15 20.462-20.458 20.462zM675.694 60.706l-67.378 53.912c-3.718 3.698-8.812 5.994-14.466 5.994-5.636 0-10.752-2.296-14.466-5.994l-67.384-67.38-67.38 67.378c-3.696 3.698-8.812 5.994-14.466 5.994-5.636 0-10.75-2.296-14.466-5.994l-67.38-67.378-67.378 67.378c-3.716 3.698-8.812 5.994-14.468 5.994-5.634 0-10.75-2.296-14.466-5.994l-67.38-53.912v673.76h491.082v-673.758zM634.77 325.23h-409.234v-40.924h409.234v40.924z" />
<glyph unicode="&#xe905;" glyph-name="cloud-subscriptions" d="M634.77 407.082c11.31 0 20.46 9.15 20.46 20.462 0 5.632-2.278 10.75-5.992 14.464l-122.772 122.76c-3.698 3.708-8.812 5.996-14.466 5.996-5.634 0-10.75-2.288-14.468-5.996l-122.77-122.76c-3.696-3.714-5.994-8.832-5.994-14.464 0-11.312 9.152-20.462 20.462-20.462 5.654 0 10.77 2.278 14.466 5.994l87.84 87.834v-482.6c0-11.308 9.152-20.46 20.462-20.46s20.46 9.152 20.46 20.46v482.6l87.842-87.834c3.722-3.716 8.836-5.994 14.47-5.994zM838.548 635.876c0.36 5.546 0.84 11.090 0.84 16.736 0 135.6-109.944 245.54-245.542 245.54-94.396 0-176.224-53.322-217.326-131.432-15.206 5.514-31.552 8.662-48.676 8.662-79.11 0-143.232-64.112-143.232-143.23 0-10.292 1.14-20.314 3.198-29.984-73.154-24.378-125.968-93.278-125.968-174.624 0-101.708 82.448-184.158 184.156-184.158h184.156c11.31 0 20.46 9.152 20.46 20.464 0 11.29-9.15 20.458-20.46 20.458h-184.156c-78.968 0-143.23 64.262-143.23 143.234 0 61.704 39.364 116.254 97.992 135.796l34.688 11.55-7.614 35.788c-1.518 7.174-2.298 14.408-2.298 21.472 0 56.418 45.898 102.308 102.308 102.308 11.668 0 23.338-2.088 34.73-6.224l33.53-12.15 16.626 31.572c35.568 67.6 104.986 109.574 181.118 109.574 112.818 0 204.618-91.79 204.618-204.618 0-3.566-0.282-7.064-0.522-10.582l-0.24-3.498-1.858-28.794 26.476-11.428c60.086-25.948 98.912-84.946 98.912-150.306 0-90.26-73.434-163.696-163.696-163.696h-163.692c-11.31 0-20.462-9.17-20.462-20.458 0-11.312 9.152-20.464 20.462-20.464h163.692c112.98 0 204.62 91.6 204.62 204.62 0 84.204-50.914 156.502-123.61 187.872z" />
<glyph unicode="&#xe906;" glyph-name="moderator-reported" d="M512 325.23c-22.59 0-40.924-18.344-40.924-40.924s18.334-40.926 40.924-40.926c22.58 0 40.924 18.346 40.924 40.926s-18.344 40.924-40.924 40.924zM552.924 652.618h-81.848c-11.29 0-20.462-9.172-20.462-20.462 0-0.52 0.27-0.95 0.292-1.458h-0.25l20.462-245.542 0.25 0.022c0.77-10.59 9.392-19.024 20.172-19.024h40.922c10.792 0 19.402 8.434 20.182 19.024l0.24-0.022 20.462 245.542h-0.24c0.042 0.51 0.28 0.94 0.28 1.458-0.002 11.288-9.174 20.462-20.462 20.462zM512 898.158c-248.608 0-450.158-201.572-450.158-450.158 0-248.62 201.55-450.158 450.158-450.158 248.618 0 450.158 201.54 450.158 450.158 0 248.586-201.54 450.158-450.158 450.158zM512 38.766c-226.018 0-409.234 183.198-409.234 409.234 0 226.018 183.216 409.234 409.234 409.234s409.234-183.216 409.234-409.234c0-226.038-183.216-409.234-409.234-409.234z" />
<glyph unicode="&#xe907;" glyph-name="order-download" d="M348.306 366.152c-11.288 0-20.46-9.15-20.46-20.46 0-5.654 2.288-10.77 5.996-14.466l163.692-163.694c3.708-3.716 8.822-5.996 14.468-5.996s10.76 2.28 14.466 5.996l163.696 163.694c3.714 3.698 5.994 8.812 5.994 14.466 0 11.31-9.174 20.46-20.462 20.46-5.634 0-10.752-2.296-14.466-5.994l-128.766-128.764v646.302c0 11.29-9.17 20.462-20.46 20.462s-20.462-9.172-20.462-20.462v-646.3l-128.764 128.764c-3.71 3.696-8.826 5.992-14.472 5.992zM818.926 611.694h-225.078c-11.292 0-20.462-9.172-20.462-20.462 0-11.32 9.172-20.462 20.462-20.462h204.618v-532.004h-572.93v532.004h204.618c11.29 0 20.46 9.142 20.46 20.462 0 11.292-9.17 20.462-20.46 20.462h-225.078c-11.292 0-20.462-9.172-20.462-20.462v-572.928c0-11.308 9.172-20.46 20.462-20.46h613.85c11.29 0 20.462 9.152 20.462 20.46v572.928c0 11.29-9.174 20.462-20.462 20.462z" />
<glyph unicode="&#xe908;" glyph-name="order-history" d="M880.31 816.312h-81.846v61.384c0 11.3-9.152 20.462-20.462 20.462-11.308 0-20.462-9.162-20.462-20.462v-61.384h-491.080v61.384c0 11.3-9.15 20.462-20.462 20.462-11.308 0-20.46-9.162-20.46-20.462v-61.384h-81.85c-45.198 0-81.846-36.648-81.846-81.868v-654.754c0-45.204 36.648-81.848 81.846-81.848h736.622c45.2 0 81.848 36.644 81.848 81.848v654.754c0 45.22-36.648 81.868-81.848 81.868zM921.234 79.69c0-22.622-18.324-40.924-40.924-40.924h-736.622c-22.6 0-40.922 18.302-40.922 40.924v491.080h818.468v-491.080zM921.234 611.694h-818.468v122.75c0 22.61 18.322 40.944 40.922 40.944h81.848v-61.384c0-11.322 9.152-20.462 20.46-20.462 11.312 0 20.462 9.142 20.462 20.462v61.382h491.080v-61.384c0-11.322 9.154-20.462 20.462-20.462 11.31 0 20.462 9.142 20.462 20.462v61.384h81.846c22.6 0 40.924-18.334 40.924-40.944v-122.748zM656.090 141.592h38.266v328.748h-29.252c-2.12-12.36-6.016-22.54-11.71-30.604-5.712-8.022-12.668-14.356-20.938-18.992-8.256-4.636-17.466-7.812-27.658-9.492-10.23-1.718-20.742-2.556-31.532-2.556v-31.534h82.824v-235.57zM461.126 187.752c-6.316-5.436-13.668-9.592-22.060-12.51-8.392-2.958-17.264-4.416-26.556-4.416-21.92 0-38.568 6.734-49.976 20.162-11.39 13.428-17.404 30.854-18.004 52.152h-38.266c-0.28-16.982 2.038-32.128 6.992-45.44 4.958-13.268 12.070-24.498 21.382-33.608 9.272-9.114 20.542-15.986 33.77-20.624 13.188-4.636 27.896-6.952 44.102-6.952 15.004 0 29.194 2.076 42.54 6.252 13.35 4.176 24.978 10.432 34.89 18.786 9.912 8.352 17.784 18.784 23.62 31.27 5.876 12.55 8.792 26.978 8.792 43.364 0 19.8-4.714 36.948-14.188 51.492-9.452 14.508-23.938 23.94-43.44 28.276v0.92c12.608 5.876 23.098 14.546 31.512 25.978 8.412 11.428 12.608 24.538 12.608 39.402 0 15.148-2.478 28.294-7.432 39.404-4.956 11.13-11.79 20.244-20.462 27.358-8.712 7.104-19.002 12.448-30.852 16.004-11.868 3.556-24.698 5.316-38.486 5.316-15.906 0-29.934-2.598-42.082-7.874-12.15-5.252-22.3-12.518-30.392-21.79-8.092-9.274-14.328-20.41-18.684-33.402-4.356-12.964-6.834-27.334-7.432-43.12h38.264c0 9.594 1.178 18.704 3.618 27.376 2.398 8.65 6.074 16.226 11.030 22.7 4.936 6.516 11.23 11.692 18.904 15.538 7.632 3.884 16.564 5.814 26.776 5.814 16.206 0 29.714-4.416 40.524-13.216 10.792-8.812 16.188-22.024 16.188-39.626 0-8.67-1.64-16.404-4.936-23.178-3.318-6.836-7.734-12.47-13.29-16.944-5.554-4.478-12.008-7.876-19.342-10.232-7.372-2.28-15.106-3.476-23.198-3.476h-12.608c-1.2 0-2.558 0.16-4.036 0.5v-33.392c7.192 0.92 14.846 1.4 22.938 1.4 9.612 0 18.542-1.318 26.796-3.936 8.252-2.658 15.366-6.654 21.38-12.090 6.016-5.416 10.81-12.030 14.408-19.924 3.596-7.874 5.396-16.924 5.396-27.114 0-9.892-1.878-18.784-5.616-26.658-3.762-7.874-8.778-14.528-15.092-19.942z" />
<glyph unicode="&#xe909;" glyph-name="partner-details" d="M160.654 265.364c27.496 7.594 74.852 38.744 74.852 109.184 0 63.032-20.55 90.836-31.572 105.754l-1.378 1.868c-0.12 0.18-0.24 0.33-0.37 0.49-0.878 2.636-3.498 13.376 2.108 36.336 2.168 8.922 0.88 19.192-2.948 27.546-8.284 18.164-23.708 51.972-12.888 77.42 17.964 43.63 25.498 46.918 45.65 55.702 1.948 0.838 3.826 1.858 5.636 3.008 5.024 3.216 25.676 10.908 46.828 10.908 10.19 0 18.664-1.886 25.458-5.284 1.758 7.042 3.886 14.118 6.792 21.182 2.498 6.244 5.136 11.598 7.732 17.164-12.708 5.526-26.456 7.864-39.982 7.864-29.584 0-57.64-10.192-68.83-17.334-32.742-14.278-46.468-27.474-67.12-77.63-17.924-42.134 3.416-87.862 13.916-110.86-12.828-52.544 4.976-70.638 4.976-70.638 9.292-12.728 25.068-31.142 25.068-83.494 0-59.588-45.878-70.020-45.878-70.020-37.238-12.988-86.864-40.684-86.864-122.53 0 0 0-20.462 20.462-20.462l91.24-0.020c4.916 15.166 11.36 28.874 19.232 40.922l-88.51 0.022c6.136 38.884 30.282 53.55 56.39 62.902zM875.294 304.528c0 0-45.86 10.432-45.86 70.020 0 52.352 15.766 70.766 25.058 83.494 0 0 17.784 18.094 4.956 70.638 10.51 22.998 31.854 68.726 13.928 110.86-20.682 50.156-34.388 63.352-67.12 77.63-11.192 7.142-39.246 17.334-68.86 17.334-13.968 0-28.176-2.498-41.242-8.434 5.214-13.238 9.63-26.356 12.768-39.284 0.54 0.298 1.056 0.69 1.598 1 6.974 3.828 16.046 5.792 26.876 5.792 21.18 0 41.804-7.692 46.878-10.908 1.76-1.15 3.678-2.168 5.614-3.008 20.124-8.784 27.676-12.070 45.622-55.702 10.87-25.448-4.576-59.256-12.87-77.42-3.816-8.354-5.118-18.624-2.938-27.546 5.576-22.96 2.976-33.702 2.098-36.336-0.12-0.16-0.24-0.31-0.36-0.49l-1.36-1.868c-11.070-14.918-31.57-42.724-31.57-105.754 0-70.44 47.338-101.59 74.83-109.184 26.12-9.352 50.256-24.018 56.412-62.904l-88.52-0.022c7.832-12.048 14.306-25.756 19.202-40.922l91.26 0.020c20.46 0 20.46 20.462 20.46 20.462 0.004 81.848-49.612 109.544-86.86 122.532zM675.176 259.448c0 0-73.338 17.504-73.338 94.116 0 67.302 30.134 91 41.764 107.364 0 0 23.898 20.934 7.876 88.522 26.696 37.028 35.386 97.332 2.716 171.776-18.224 43.502-34.292 67.34-58.79 81.168-17.982 10.192-38.404 13.958-58.268 13.958-36.966 0-72.036-13.098-86.054-22.27-40.922-18.376-68.438-35.31-94.264-99.812-22.4-54.18 4.256-112.968 17.374-142.532-16.004-67.572 6.196-90.81 6.196-90.81 11.65-16.364 41.762-40.062 41.762-107.364 0-76.612-73.334-94.116-73.334-94.116-46.548-16.746-143.74-48.836-143.74-159.336 0 0 0-20.462 20.46-20.462h572.928c20.46 0 20.46 20.462 20.46 20.462 0.002 110.5-97.192 142.59-143.748 159.336zM247.616 120.57c9.552 57.63 60.016 80.65 111.582 99.154l1.618 0.558c36.788 9.792 102.258 49.038 102.258 133.28 0 71.458-28.946 106.316-44.52 125.060-3.106 3.806-6.854 8.64-5.994 7.572-1.27 2.768-7.384 18.786 1.468 56.112 4.134 17.494-2.878 27.066-2.878 27.066-11.18 25.126-31.942 71.906-16.356 109.702 20.932 52.274 39.456 62.584 73.076 77.69 1.936 0.878 3.846 1.898 5.644 3.068 6.364 4.156 33.23 15.594 63.622 15.594 15.188 0 28.016-2.908 38.126-8.66 12.148-6.874 23.838-19.944 41.462-61.976 32.872-74.952 12.048-116.876 1.558-131.422-6.934-9.642-9.352-21.81-6.616-33.36 8.116-34.348 2.838-48.836 1.5-51.724-0.34-0.41-5.256-6.642-7.734-9.66-15.546-18.746-44.52-53.604-44.52-125.060 0-84.242 65.502-123.488 102.268-133.28l1.64-0.558c51.552-18.504 102.008-41.524 111.56-99.154h-528.764z" />
<glyph unicode="&#xe90a;" glyph-name="seller-details" d="M552.924 611.694h-327.388v-286.464h327.388v286.464zM512 366.152h-245.542v204.618h245.542v-204.618zM634.77 366.152h-40.922v-40.922h40.922v40.922zM389.23 243.38h40.922v40.926h-40.922v-40.926zM450.614 79.69h122.772c11.29 0 20.462 9.148 20.462 20.46 0 11.292-9.174 20.46-20.462 20.46h-122.772c-11.288 0-20.46-9.17-20.46-20.46 0-11.312 9.172-20.46 20.46-20.46zM307.382 243.38h40.922v40.926h-40.922v-40.926zM266.458 284.306h-40.922v-40.926h40.922v40.926zM839.388 693.54h-143.232v81.846h61.382c22.582 0 40.926 18.314 40.926 40.924v40.924c0 22.59-18.344 40.924-40.926 40.924h-245.538c-22.59 0-40.924-18.334-40.924-40.924v-40.922c0-22.61 18.334-40.924 40.924-40.924h61.384v-81.846h-388.772c-22.59 0-40.924-18.334-40.924-40.922v-613.852c0-22.58 18.334-40.924 40.924-40.924h654.776c22.576 0 40.922 18.344 40.922 40.924v613.85c0 22.59-18.346 40.922-40.922 40.922zM552.924 816.312h-40.924v40.922h40.924v-40.922zM593.848 857.234h163.692v-40.922h-163.692v40.922zM655.23 693.54h-40.922v81.846h40.922v-81.846zM839.388 38.766h-654.776v122.77h654.776v-122.77zM839.388 202.458h-654.776v450.16h654.776v-450.16zM757.54 325.23h40.926v40.922h-40.926v-40.922zM675.694 325.23h40.924v40.922h-40.924v-40.922zM757.54 407.074h40.926v40.926h-40.926v-40.926zM757.54 488.922h40.926v40.924h-40.926v-40.924zM798.464 611.694h-204.616v-40.924h204.618v40.924zM716.618 529.846h-40.924v-40.924h40.924v40.924zM634.77 529.846h-40.922v-40.924h40.922v40.924zM675.694 243.38h122.772v40.926h-122.772v-40.926zM675.694 407.074h40.924v40.926h-40.924v-40.926zM634.77 448h-40.922v-40.926h40.922v40.926z" />
<glyph unicode="&#xe90b;" glyph-name="seller-manage" d="M716.618 611.674h-245.542c-81.846 0.020-81.846 81.868-163.694 81.868h-163.694c-45.198 0-81.846-36.646-81.846-81.868v-491.062c0-45.238 36.648-81.846 81.846-81.846h572.928c45.2 0 81.848 36.608 81.848 81.846v409.216c0 45.22-36.648 81.846-81.846 81.846zM757.54 120.612c0-22.62-18.342-40.922-40.922-40.922h-572.93c-22.62 0-40.922 18.302-40.922 40.922v327.37h654.774v-327.37zM757.54 488.924h-654.774v122.75c0 22.61 18.302 40.944 40.922 40.944h163.694c61.384 0 61.384-81.846 163.694-81.846h245.542c22.58 0 40.922-18.334 40.922-40.944v-40.904zM880.31 775.368h-245.54c-81.846 0.020-81.846 81.868-163.694 81.868h-163.694c-45.2 0-81.846-36.65-81.846-81.868v-20.442c0-11.32 9.152-20.46 20.46-20.46 11.312 0 20.462 9.14 20.462 20.46v20.442c0 22.61 18.304 40.944 40.924 40.944h163.694c61.384 0 61.384-81.826 163.654-81.846h245.58c22.58 0 40.924-18.334 40.924-40.944v-409.214c0-22.622-18.344-40.926-40.924-40.926h-20.46c-11.31 0-20.46-9.15-20.46-20.458 0-11.31 9.15-20.462 20.46-20.462h20.46c45.2 0 81.848 36.608 81.848 81.848v409.212c0 45.218-36.648 81.846-81.848 81.846z" />
<glyph unicode="&#xe90c;" glyph-name="seller-promote" d="M245.998 652.618c-33.89 0-61.384-27.506-61.384-61.386 0-33.91 27.496-61.416 61.384-61.416 33.912 0 61.386 27.506 61.386 61.416-0.002 33.88-27.476 61.386-61.386 61.386zM245.998 570.77c-11.308 0-20.46 9.142-20.46 20.462 0 11.292 9.152 20.462 20.46 20.462 11.312 0 20.462-9.172 20.462-20.462-0.002-11.32-9.152-20.462-20.462-20.462zM491.538 325.23c5.656 0 10.77 2.276 14.466 5.994l40.924 40.924c3.714 3.696 5.994 8.81 5.994 14.426 0 11.332-9.152 20.5-20.462 20.5-5.632 0-10.748-2.296-14.466-5.994l-40.924-40.922c-3.696-3.716-5.994-8.834-5.994-14.466 0-11.312 9.152-20.462 20.462-20.462zM956.164 482.92l-409.234 409.234c-3.698 3.706-8.812 6.004-14.468 6.004h-286.464c-33.89 0-61.384-27.506-61.384-61.386 0-11.32 9.152-20.46 20.462-20.46 11.308 0 20.46 9.14 20.46 20.46 0 11.292 9.152 20.462 20.46 20.462h277.994l388.772-388.802-46.918-46.888c-3.698-3.716-5.994-8.832-5.994-14.468 0-11.306 9.17-20.5 20.46-20.5 5.656 0 10.772 2.316 14.466 6.036l61.386 61.386c3.698 3.698 5.994 8.81 5.994 14.436 0.002 5.672-2.294 10.77-5.992 14.486zM389.23 263.844c0-11.308 9.15-20.462 20.46-20.462 5.656 0 10.77 2.278 14.466 5.996l20.462 20.46c3.716 3.698 5.994 8.812 5.994 14.428 0 11.33-9.15 20.502-20.46 20.502-5.656 0-10.77-2.298-14.466-6.036l-20.462-20.422c-3.696-3.714-5.994-8.83-5.994-14.466zM424.158 769.382c-3.696 3.706-8.81 6.004-14.466 6.004h-286.464c-33.89 0-61.386-27.506-61.386-61.384v-286.462c0-5.656 2.298-10.772 5.996-14.468l409.234-409.234c3.718-3.714 8.834-5.994 14.468-5.994 5.656 0 10.77 2.28 14.466 5.994l327.388 327.388c3.718 3.698 5.996 8.812 5.996 14.466 0 5.632-2.298 10.75-5.996 14.466l-409.236 409.224zM491.538 47.238l-388.772 388.762v278.002c0 11.288 9.15 20.46 20.46 20.46h277.992l388.772-388.772-298.452-298.452zM491.538 161.536c5.656 0 10.77 2.28 14.466 5.996l81.846 81.846c3.698 3.698 5.996 8.812 5.996 14.466 0 11.31-9.152 20.422-20.462 20.422-5.654 0-10.77-2.258-14.466-5.956l-81.848-81.848c-3.696-3.716-5.994-8.83-5.994-14.506 0-11.268 9.152-20.42 20.462-20.42z" />
<glyph unicode="&#xe90d;" glyph-name="seller-sales" d="M164.15 284.306h-61.384v491.080h654.774v-61.384c0-11.322 9.172-20.462 20.462-20.462s20.462 9.142 20.462 20.462v61.384c0 22.58-18.344 40.924-40.926 40.924h-654.772c-22.59 0-40.924-18.346-40.924-40.924v-491.080c0-22.58 18.334-40.964 40.924-40.964h61.384c11.29 0 20.462 9.194 20.462 20.502 0 11.288-9.172 20.462-20.462 20.462zM921.234 652.618h-654.776c-22.59 0-40.922-18.344-40.922-40.922v-491.084c0-22.58 18.334-40.922 40.922-40.922h654.776c22.58 0 40.924 18.342 40.924 40.922v491.082c0 22.58-18.344 40.924-40.924 40.924zM716.618 120.612h-450.158v491.082h654.776v-491.084h-204.618zM656.31 367.992c-7.312 5.674-15.724 10.372-25.256 14.026-9.512 3.636-16.428 6.834-26.398 9.592v72.206c11.97 0 17.826-3.096 23.262-9.24 5.414-6.166 8.332-15.056 8.81-26.708h37.866c0 11.172-1.958 21.004-5.814 29.436-3.876 8.442-9.070 15.406-15.626 20.882-6.55 5.476-14.206 9.59-23.098 12.328-8.852 2.708-15.428 4.096-25.398 4.096v22.45h-19.942v-22.45c-9.952 0-16.664-1.488-25.736-4.446-9.072-2.968-17.126-7.242-24.1-12.836-6.962-5.586-12.508-12.55-16.604-20.872-4.118-8.334-6.136-17.974-6.136-28.914 0-12.55 2.218-23.062 6.646-31.492 4.414-8.414 10.228-15.468 17.434-21.042 7.196-5.576 15.266-10.152 24.238-13.69s15.168-6.594 24.258-9.092v-82.786c-15.286 0.44-23.4 5.018-30.072 13.688-6.636 8.674-9.85 20.52-9.612 35.588h-37.876c-0.23-12.79 1.598-24.056 5.466-33.87 3.886-9.81 9.352-18.084 16.454-24.818 7.084-6.734 15.598-11.93 25.568-15.568 9.97-3.634 18.126-5.572 30.072-5.812v-23.398h19.942v23.398c11.070 0.44 18.544 2.338 28.054 5.632 9.534 3.318 17.846 8.114 24.938 14.388 7.074 6.256 12.692 14.128 16.768 23.6 4.118 9.472 6.154 20.582 6.154 33.372 0 12.306-2.218 22.698-6.654 31.13-4.418 8.452-10.274 15.524-17.608 21.222zM584.714 395.386c-4.634 1.12-6.434 2.558-10.95 4.276-4.536 1.678-8.534 3.916-11.952 6.654-3.458 2.736-6.276 6.054-8.492 9.932s-3.316 8.552-3.316 14.038c0 12.078 3.258 20.682 9.792 25.838 6.536 5.114 12.97 7.692 24.918 7.692v-68.43zM631.234 280.23c-7.634-6.274-14.608-9.872-26.578-10.792v79.708c5.096-1.34 7.234-2.936 12.11-4.774 4.876-1.818 9.252-4.198 13.15-7.196 3.856-2.938 6.952-6.594 9.292-10.928 2.318-4.336 3.476-9.694 3.476-16.108 0-13.646-3.798-23.636-11.45-29.91z" />
<glyph unicode="&#xe90e;" glyph-name="seller-transactions" d="M573.384 202.458h81.846c11.292 0 20.462 9.152 20.462 20.462v81.846c0 11.31-9.172 20.462-20.462 20.462h-81.846c-11.292 0-20.46-9.152-20.46-20.462v-81.846c0-11.308 9.17-20.462 20.46-20.462zM205.076 284.306h245.538c11.292 0 20.462 9.152 20.462 20.46 0 11.31-9.17 20.462-20.462 20.462h-245.538c-11.292 0-20.462-9.152-20.462-20.462-0.002-11.308 9.17-20.46 20.462-20.46zM205.076 202.458h163.692c11.29 0 20.462 9.152 20.462 20.462 0 11.288-9.172 20.458-20.462 20.458h-163.692c-11.292 0-20.462-9.172-20.462-20.458-0.002-11.308 9.17-20.462 20.462-20.462zM757.54 652.618h-654.774c-22.59 0-40.924-18.344-40.924-40.922v-491.084c0-22.58 18.334-40.922 40.924-40.922h654.774c22.582 0 40.926 18.342 40.926 40.922v491.082c-0.002 22.58-18.344 40.924-40.926 40.924zM757.54 120.612h-654.774v286.462h654.774v-286.462zM757.54 529.846h-654.774v81.848h654.774v-81.848zM921.234 816.312h-654.776c-22.59 0-40.922-18.346-40.922-40.924v-61.384c0-11.322 9.172-20.462 20.46-20.462 11.292 0 20.462 9.142 20.462 20.462v61.382h654.776v-491.080h-61.384c-11.292 0-20.46-9.174-20.46-20.462 0-11.308 9.17-20.462 20.46-20.462h61.384c22.58 0 40.924 18.346 40.924 40.926v491.078c0 22.58-18.344 40.926-40.924 40.926z" />
<glyph unicode="&#xe912;" glyph-name="mail" d="M69.372 598.134l220.016-171.292-108.76-106.456 170.016 81.104 162.618-91.694 162.886 91.842 170.25-81.252-108.942 106.632 219.696 171.116-443.89-232.422zM1022.028 787.732c0 13.028-10.56 23.59-23.588 23.59h-972.878c-13.030 0-23.59-10.562-23.59-23.59v-677.464c0-13.028 10.562-23.59 23.59-23.59h972.878c13.028 0 23.588 10.562 23.588 23.59v677.464zM974.054 587.040v-429.59c0-13.030-10.166-22.796-23.198-22.796h-875.192c-13.028 0-23.194 9.768-23.194 22.796v580.574c0 13.028 10.166 22.798 23.194 22.798h875.198c13.024 0 23.194-9.77 23.194-22.798v-150.984h-0.002z" />
<glyph unicode="&#xe913;" glyph-name="tag" d="M1011.526 398.954l-557.044 557.052h-324.36c-52.674-0.292-91.326-34.948-91.64-35.226v0l-0.016-0.016-0.008-0.014c-0.284-0.318-34.938-38.966-35.228-91.64v-324.36l557.042-557.046c0 0 12.042-16.168 28.204 0l430.132 430.134-3.96-3.452c10.6 14.302-3.122 24.568-3.122 24.568zM560.278 24.112l-494.746 514.74v270.258c5.696 37.288 27.856 56.112 28.176 56.382v0l0.016 0.012 0.012 0.018c0.268 0.32 19.098 22.48 56.384 28.174h270.258l514.734-494.748c0 0 15.962-12.254 0-28.204l-346.634-346.632c-15.954-15.962-28.2 0-28.2 0zM158.354 800.906c-31.158-31.158-31.158-81.666 0-112.824 31.158-31.152 81.666-31.152 112.818 0 31.152 31.154 31.158 81.666 0 112.824-31.152 31.154-81.666 31.15-112.818 0zM242.386 716.872c-15.256-15.25-39.992-15.25-55.242 0-15.252 15.256-15.252 39.992 0 55.24 15.252 15.256 39.984 15.256 55.242 0 15.25-15.248 15.25-39.984 0-55.24zM697.77 312.018c1.794-1.792 1.816-5.4 0.026-7.2l-32.376-32.366c-3.594-3.594-6.748-0.44-33.724 26.532-55.726-38.636-111.472-32.356-164.508 20.686-2.248 2.25-2.23 4.928-0.456 7.634l53.948 60.23c2.692 2.688 4.95 3.156 9.882 0.012 18.882-12.59 35.518-14.852 45.858-4.512 5.842 5.844 5.834 13.934-0.016 19.792-11.682 11.68-32.354 10.792-93.5 0.896-44.048-7.198-87.192 2.676-119.558 35.048-34.16 34.166-47.626 92.602-14.378 142.942l-24.728 24.732c-2.25 2.244-2.68 5.398-0.89 7.19l32.808 32.81c3.59 3.59 6.276 0.898 32.818-25.636 49.888 32.83 109.232 23.844 148.792-15.718 2.69-2.694 2.666-6.302-0.012-9.902l-58.438-64.728c-3.144-3.15-28.328 5.866-31.92 2.274-4.042-4.038-2.23-9.448 0.926-12.602 10.78-10.772 36.83-7.186 89.882 0.010 48.992 6.75 88.992-3.606 116.866-31.486 44.948-44.932 50.342-100.666 16.638-150.586l26.060-26.052z" />
<glyph unicode="&#xe914;" glyph-name="bell" d="M920.618 145.452c-9.816 10.262-97.292 110.812-97.292 303.45 0 0 15.38 291.702-214.040 372.808 0 0-23.834 50.742-97.29 52.020-73.452-1.278-97.29-52.020-97.29-52.020-229.414-81.108-214.034-372.808-214.034-372.808 0-192.638-87.474-293.188-97.288-303.45-9.812-10.262-19.458-20.632-19.458-43.35s29.184-26.010 29.184-26.010h321.056c0-57.792 77.832-54.322 77.832-54.322s77.832-3.468 77.832 54.322h321.052c0 0 29.186 3.292 29.186 26.010s-9.638 33.088-19.45 43.35z" />
<glyph unicode="&#xe915;" glyph-name="seller" d="M456.624 136.666c0 0-46.218 3.248-83.064 27.692 0 0-19.528 0.126-18.458-9.23 0 0 30.572-39.8 92.294-55.376 0 0 60.128-14.776 184.586 0 0 0 74.28 7.552 92.296 55.376 0 0 20.764 83.066-65.38 83.066h-82.292c0 0-12.004 0.052-9.228 9.228l101.526 55.376c0 0 13.816 9.226 27.688 9.226 0 0 26.036 2.26 36.918-18.46 0 0 4.614-9.224 9.23-9.224 3.372 0 14.706 11.678 14.706 11.678s15.72 16.008 40.668 16.008c0 0 36.804 1.542 54.242-26.55l-8.096-19.598c0 0 32.522 27.688 64.606 27.688 0 0 55.38 7.168 55.38-46.142 0 0-2.434-24.066-18.46-36.92l-369.178-249.198c0 0-18.052-9.226-46.146-9.226 0 0-27.062-1.912-46.144 9.226-19.086 11.142 0 0 0 0l-212.278 110.754c0 0-14.146 9.23-27.688 9.23-6.622 0-18.716-8.716-36.918-27.688l-46.146-36.92-101.528 230.734c0 0 156.502 71.798 193.53 80.184 36.918 8.362 55.664 2.88 55.664 2.88s55.666-12.976 119.984-64.606c0 0 37.912-30.356 55.378-36.916 0 0 56.906-27.69 101.522-27.69h55.38c0 0 44.224 4.994 46.144-31.166 0 0 5.004-31.132-46.144-33.438-104.616-14.616-184.594 0.002-184.594 0.002zM512 943.956c-174.58 0-316.106-141.528-316.106-316.106 0-174.58 141.528-316.11 316.106-316.11 174.584 0 316.108 141.528 316.108 316.106s-141.524 316.11-316.108 316.11zM512 374.038c-140.178 0-253.81 113.632-253.81 253.808 0 140.178 113.632 253.81 253.81 253.81 140.17 0 253.81-113.632 253.81-253.81-0.002-140.176-113.64-253.808-253.81-253.808zM533.7 464.718c0-1.748-1.744-3.512-3.504-3.512h-31.582c-3.498 0-3.498 3.068-3.498 29.384-46.042 8.336-70.166 38.598-70.166 90.34 0 2.196 1.324 3.498 3.5 3.942l55.702 3.074c2.626 0 3.946-0.876 4.822-4.824 3.070-15.352 10.086-24.564 20.176-24.564 5.69 0 9.638 3.942 9.638 9.656 0 11.392-10.512 21.048-45.168 46.042-24.994 17.982-41.224 43.85-41.224 75.414 0 33.336 21.944 68.414 62.722 76.75v24.124c0 2.194 1.322 3.944 3.070 3.944h32.010c3.504 0 3.504-2.64 3.504-28.514 40.346-8.32 64.912-41.65 64.912-80.246 0-2.628-1.766-4.376-4.836-4.824l-60.076-3.068c-3.070 0-10.964 16.676-14.464 16.676-3.946 0-5.698-3.522-5.698-6.588 0-10.514 14.468-21.478 43.852-43.85 27.192-20.62 41.658-45.168 41.658-72.362 0-43.844-24.552-73.66-65.348-81.55v-25.444h-0.002z" />
<glyph unicode="&#xe916;" glyph-name="partner" d="M930.15 846.826c-19.72 51.45-200.518 107.372-418.228 107.372-217.714 0-398.5-55.924-418.246-107.372-43.254-112.62-42.476-255.036-26.956-351.032 15.532-95.982 83.040-262.972 182.954-368.136 94.392-99.348 164.85-140.274 204.586-160.338 29.31-14.79 49.512-23.126 57.662-23.126s28.336 8.336 57.674 23.126c39.716 20.064 110.192 60.99 204.558 160.338 99.938 105.162 167.438 272.154 182.962 368.136 15.536 95.996 16.3 238.412-26.966 351.032zM858.084 496.364c-12.066-76.288-64.478-208.994-142.022-292.562-73.244-78.972-127.966-111.528-158.78-127.442-22.764-11.776-38.448-18.406-44.77-18.406-6.332 0-22.006 6.63-44.758 18.406-30.838 15.914-85.54 48.468-158.792 127.442-77.556 83.568-129.958 216.274-142.014 292.562-12.042 76.286-12.654 189.49 20.92 278.984 15.33 40.904 155.654 85.346 324.642 85.346 168.972 0 309.3-44.442 324.65-85.346 33.556-89.494 32.946-202.698 20.924-278.984zM602.086 667.436c-11.934 9.566-25.938 16.394-42.008 20.522-16.074 4.094-33.27 6.152-51.584 6.152h-123.394v-382.204h76.21v129.538h47.182c17.968 0 34.918 2.56 50.82 7.638 15.874 5.078 29.902 12.866 42.006 23.442 12.056 10.54 21.668 24.012 28.768 40.456 7.052 16.416 10.604 35.754 10.604 58.030 0 23.050-3.454 42.486-10.358 58.328-6.898 15.812-16.314 28.52-28.246 38.098zM503.82 510.046h-42.51v115.468h42.51c20.4 0 35.874-4.092 46.398-12.31 10.552-8.212 15.826-22.274 15.826-42.194-0.002-40.664-20.756-60.964-62.224-60.964z" />
<glyph unicode="&#xe917;" glyph-name="dollar" d="M514 951.226c-278.348 0-503.998-225.65-503.998-503.996 0-278.35 225.65-504.002 503.998-504.002 278.356 0 504 225.652 504 503.996 0 278.346-225.644 504.002-504 504.002zM514 42.552c-223.498 0-404.674 181.18-404.674 404.67 0 223.498 181.176 404.674 404.674 404.674 223.486 0 404.672-181.174 404.672-404.672 0-223.492-181.186-404.672-404.672-404.672zM548.602 187.136c0-2.792-2.788-5.6-5.588-5.6h-50.354c-5.578 0-5.578 4.892-5.578 46.852-73.41 13.29-111.876 61.538-111.876 144.036 0 3.5 2.112 5.578 5.582 6.288l88.812 4.898c4.188 0 6.292-1.392 7.69-7.692 4.892-24.478 16.080-39.166 32.166-39.166 9.074 0 15.368 6.29 15.368 15.394 0 18.166-16.764 33.558-72.018 73.414-39.85 28.67-65.73 69.914-65.73 120.238 0 53.15 34.986 109.078 100.004 122.37v38.46c0 3.5 2.104 6.288 4.892 6.288h51.038c5.586 0 5.586-4.21 5.586-45.466 64.326-13.264 103.496-66.404 103.496-127.942 0-4.19-2.816-6.978-7.71-7.692l-95.786-4.892c-4.894 0-17.486 26.588-23.064 26.588-6.288 0-9.078-5.616-9.078-10.502 0-16.766 23.064-34.244 69.916-69.916 43.35-32.876 66.42-72.016 66.42-115.374 0-69.904-39.15-117.444-104.192-130.026v-40.558h0.004z" />
<glyph unicode="&#xe918;" glyph-name="social-facebook" d="M696.782 857.248v-131.452c0 0-93.36 9.664-116.708-27.494-12.79-20.282-5.22-79.732-6.334-122.386h123.8c-10.458-49.886-17.97-83.736-25.66-126.93h-98.86v-408.38h-171.498c0.040 125.894-0.040 272.786 0 406.808h-72.998v128.502h72.202c3.686 93.958 5.1 187.058 50.046 234.454 50.526 53.274 98.74 46.878 246.010 46.878z" />
<glyph unicode="&#xe919;" glyph-name="social-reddit" d="M732.204 410.906c2.652-6.758 3.84-13.75 3.84-20.656 0-13.976-4.82-27.532-12.914-38.586-8.008-10.93-19.336-19.446-32.664-23.156h0.020c-0.106-0.040-0.23-0.040-0.274-0.086-0.062 0-0.144-0.040-0.188-0.040-6.234-2.126-12.64-3.148-19.004-3.148-14.894 0-29.496 5.36-41.2 14.516-11.598 9.118-20.378 22.196-23.132 37.734h-0.020c0 0.046 0 0.086-0.024 0.172 0 0.040 0 0.078-0.040 0.126h0.040c-0.876 4.024-1.312 8.008-1.312 11.968 0 13.46 4.57 26.352 12.14 37.032 7.532 10.594 18.148 19.024 30.558 23.36 0.062 0 0.106 0.024 0.106 0.024 0.062 0 0.062 0.040 0.106 0.040 7.050 2.632 14.476 3.906 21.796 3.906 13.376 0 26.558-4.046 37.676-11.476 10.972-7.296 19.878-18 24.344-31.29 0.062-0.086 0.062-0.148 0.106-0.226 0-0.086 0.040-0.148 0.082-0.21h-0.042zM691.254 245.946c-5.234 3.398-11.304 5.46-17.73 5.46-5.172 0-10.554-1.46-15.308-4.648v0c-45.27-27.016-98.484-41.804-151.3-41.804-39.656 0-79.040 8.368-114.754 25.906l-0.168 0.086-0.164 0.062c-5.382 2.21-11.516 6.906-18.21 11.344-3.402 2.196-6.95 4.382-10.89 5.992-3.878 1.664-8.2 2.836-12.828 2.836-3.796 0-7.844-0.876-11.786-2.672-0.21-0.086-0.398-0.164-0.606-0.226h0.020c-6.214-2.382-11.098-6.718-14.208-11.89-3.292-5.304-4.878-11.476-4.878-17.648 0-5.546 1.312-11.102 4.024-16.148 2.566-4.774 6.55-8.968 11.746-11.766 51.024-34.422 111.102-50 171.41-49.938 54.382 0 109.078 12.602 157.786 35.5l0.274 0.172 0.226 0.126c6.426 3.774 14.958 7.196 23.012 12.156 3.96 2.546 7.864 5.492 11.18 9.29 3.336 3.796 6.028 8.468 7.55 13.992v0.024c0.626 2.46 0.918 4.836 0.918 7.196 0 4.532-1.086 8.828-2.942 12.688-2.756 5.768-7.178 10.526-12.374 13.91zM333.062 328.718c0.086 0 0.188-0.046 0.312-0.086 6.512-2.376 13.226-3.57 19.86-3.57 16.586 0 32.71 6.782 44.89 17.86 12.184 11.094 20.528 26.804 20.528 44.704 0 0.46 0 0.938-0.040 1.5 0.040 0.796 0.082 1.672 0.082 2.546 0 17.774-8.238 33.524-20.296 44.664-12.122 11.18-28.184 18-44.828 18-4.446 0-8.972-0.524-13.394-1.562-0.082 0-0.126-0.024-0.164-0.024 0 0-0.062 0-0.086 0-22.028-4.61-41.344-20.946-48.476-43.43v0-0.040c0-0.046-0.042-0.086-0.042-0.086-2.042-6.156-2.984-12.516-2.984-18.796 0-13.79 4.546-27.204 12.414-38.258 7.758-10.868 18.774-19.398 32-23.36 0.080 0.002 0.122-0.022 0.224-0.062zM1023.872 489.382v-0.086c0.148-2.234 0.192-4.46 0.192-6.672 0-24.89-7.968-48.812-21.282-69.094-12.43-18.976-29.558-34.876-49.292-45.64 1.274-9.906 2.004-19.898 2.004-29.828-0.020-53.546-18.48-106.204-50.648-148.398v0h-0.062c-59.454-79.102-150.734-125.726-242.918-149.234h-0.020l-0.062-0.086c-49.168-11.914-99.86-18.024-150.508-18.024-75.536 0-151.028 13.626-221.454 41.868l-0.020 0.062h-0.062c-73.036 30.102-142.602 77.954-185.282 148.046-22.95 37.398-35.546 81.266-35.546 125.368 0 9.968 0.668 19.96 2.004 29.852-19.234 10.804-35.882 26.156-48.23 44.476-13.206 19.688-21.572 42.718-22.616 67.102v0.384c0 34.148 14.832 66.476 37.882 90.296 23.032 23.844 54.508 39.43 88.282 39.43 0.458 0 0.918 0 1.376 0 3.546 0.25 7.114 0.376 10.704 0.376 16.96 0 33.938-2.75 50.086-8.93l0.082-0.078 0.086-0.024c13.786-5.782 27.472-12.79 39.676-22.484 3.96 2.062 8.258 4.398 13.098 6.234 73.972 43.804 159.918 60.704 243.692 65.562 0.75 41.532 5.84 84.96 26.074 122.968 16.876 31.586 46.102 56.18 80.96 64.688l0.144 0.086 0.168 0.024c13.266 2.562 26.636 3.75 39.926 3.75 35.398 0 70.382-8.382 103.132-21.46 14.476 21.86 35.172 38.946 59.43 48.5l0.23 0.126 0.21 0.086c14.246 4.438 29.286 7.046 44.41 7.046 15.938 0 31.976-2.922 47.020-9.64v0.046c0.020-0.046 0.040-0.046 0.040-0.046 0.106-0.040 0.21-0.102 0.292-0.102 21.57-8.32 39.824-23.656 52.758-42.742 12.954-19.148 20.566-42.094 20.566-65.71 0-4.336-0.25-8.696-0.75-13.054l-0.042-0.11c0-0.040 0-0.14-0.020-0.188-2.524-30.492-17.98-57.282-39.844-76.344-22.008-19.172-50.48-30.726-79.75-30.726-4.672 0-9.406 0.25-14.122 0.876-28.996 2.226-56.050 16.25-75.91 37.11-19.942 20.86-32.774 48.726-32.774 78.766 0 1.46 0.126 2.946 0.188 4.382-27.242 12.118-56.156 22.196-84.878 22.172-4.152 0-8.324-0.226-12.472-0.64h-0.042c-21.508-2.070-41.512-15.648-51.21-35.132v-0.102c-14.688-28.64-17.628-62.126-18.066-95.376 82.46-5.382 165.422-25.18 238.16-66.984h0.106l1.062-0.626c1.378-0.812 3.922-2.21 6.238-3.438 5.008 4.062 10.304 8.218 16.312 11.82 22.070 14.688 48.21 21.992 74.324 21.992 11.622 0 23.238-1.484 34.504-4.36h0.042l0.458-0.148c0.168 0 0.292-0.086 0.418-0.086v-0.016c26.64-6.758 50.734-22.054 68.86-42.664 18.11-20.648 30.312-46.79 32.688-75.132v-0.090zM780.954 759.29c0-1.126 0.024-2.274 0.126-3.414v-0.212c0.542-14.328 7.304-27.664 17.586-37.508 10.328-9.868 24.054-15.96 37.968-16h0.352c1.004-0.086 2.024-0.086 3.004-0.086 14.040-0.016 27.976 6.008 38.426 15.836 10.492 9.868 17.418 23.258 17.96 37.734l0.020 0.062v0.086c0.106 1.102 0.148 2.172 0.148 3.274 0 14.876-6.968 29.062-17.86 39.57-10.844 10.476-25.426 16.96-39.84 16.938-4.632 0-9.242-0.626-13.75-2.024l-0.144-0.040-0.126-0.040c-11.872-3.086-22.968-10.39-30.976-20.11-8.032-9.676-12.894-21.652-12.894-34.066zM172.21 538.234c-11.016 5.132-22.406 8.804-33.668 8.742-1.922 0-3.82-0.102-5.718-0.312h-0.25l-0.27-0.040c-16.168-0.438-32.524-7.516-44.746-18.82-12.266-11.266-20.378-26.446-21.008-43.218v-0.172l-0.020-0.126c-0.126-1.352-0.168-2.726-0.168-4 0-10.352 3.172-20.344 8.554-29.46 3.984-6.758 9.218-12.93 15.126-18.312 18.918 41.39 48.438 76.516 82.168 105.718zM890.618 335.742c0 36.906-13.29 73.954-34.856 103.828-42.972 59.782-109.644 98.79-179.004 120.532l-0.48 0.164c-13.308 4.086-26.762 7.696-40.324 10.804-40.532 9.218-82.082 13.812-123.594 13.812-55.762 0-111.48-8.242-164.882-24.718-69.34-21.992-136.214-60.726-179.106-120.718v-0.046c-21.734-29.954-34.46-67.172-34.46-104.196 0-13.64 1.71-27.266 5.3-40.532l0.040-0.024c7.8-29.766 23.074-56.344 42.848-79.516 19.734-23.18 43.972-42.976 69.464-59.118 5.632-3.484 11.304-6.82 17.106-10.102 74.012-41.296 159.27-59.406 243.898-59.406 14.29 0 28.704 0.5 42.93 1.524 85.214 7.046 170.804 32.188 239.976 83.61l0.024 0.040c22.008 16.274 42.43 35.984 58.554 58.39 16.188 22.398 28.054 47.5 33.332 74.718v0.086l0.024 0.016c2.166 10.18 3.21 20.484 3.21 30.852zM957.89 482.602c-0.020 8.954-2.062 17.876-6.55 26.18l-0.126 0.102-0.040 0.148c-5.988 12.352-15.418 21.672-26.786 28.016-11.348 6.422-24.636 9.68-37.964 9.68-12.040 0-24.054-2.688-34.692-8.054 33.856-29.39 63.54-64.688 82.73-106.282 6.176 5.382 11.454 11.954 15.376 19.274 5.134 9.576 8.052 20.318 8.052 30.936z" />
<glyph unicode="&#xe91a;" glyph-name="social-twitter" d="M696.51 855.37c81.394 1.422 124.7-27.73 166.082-64.794 35.094 2.97 80.72 22.238 107.626 35.666 8.686 4.692 17.422 9.36 26.132 14.052-15.376-40.784-36.166-72.684-68.166-96.944-7.114-5.366-14.178-12.628-23.064-16.048v-0.5c45.578 0.45 83.192 20.666 118.908 31.624v-0.5c-18.77-29.328-44.178-59.030-71.26-80.346-10.932-8.536-21.864-17.072-32.796-25.61 0.598-47.448-0.7-92.726-9.734-132.586-52.466-231.776-191.466-389.124-411.538-456.514-79.022-24.21-206.716-34.144-297.27-12.030-44.878 10.958-85.438 23.312-123.502 39.662-21.14 9.084-40.734 18.918-59.454 30.152-6.166 3.668-12.304 7.364-18.446 11.006 20.418-0.574 44.304-6.116 67.142-2.496 20.642 3.294 40.884 2.42 59.954 6.54 47.524 10.234 89.706 23.786 126.072 44.704 17.622 10.108 44.354 22.014 56.882 36.666-23.586-0.424-44.978 4.942-62.5 11.032-67.99 23.586-107.528 66.942-133.26 132.086 20.592-2.196 79.896-7.488 93.774 4.018-25.934 1.398-50.844 16.148-68.69 27.106-54.636 33.62-99.24 90.004-98.89 176.764 7.188-3.344 14.352-6.664 21.516-10.034 13.728-5.692 27.706-8.736 44.078-12.032 6.94-1.422 20.766-5.442 28.704-2.52h-1.024c-10.558 12.080-27.804 20.166-38.462 33.146-35.044 42.832-67.94 108.774-47.124 187.324 5.266 19.918 13.628 37.514 22.564 53.712 0.324-0.174 0.674-0.324 0.998-0.474 4.094-8.412 13.204-14.576 18.97-21.59 17.92-21.838 40.010-41.458 62.524-58.78 76.726-58.954 145.816-95.196 256.762-122.002 28.154-6.838 60.702-12.056 94.298-12.082-9.434 27.032-6.39 70.762 1.048 96.944 18.696 65.768 59.304 113.168 118.908 138.576 14.228 6.090 30.052 10.534 46.626 14.078 8.54 1.002 17.076 2 25.612 3.024z" />
<glyph unicode="&#xe91b;" glyph-name="comment" d="M539.36 898.348c301.074 0 484.574-173.16 484.574-386.73 0-213.59-183.5-384.418-484.574-384.418-36.68 0-72.528 10.442-107.184 15.36-140.148-174.516-361.2-140.21-361.2-140.21 156.132 72.792 152.964 193.356 125.208 209.402-122.54 70.936-196.25 178.888-196.25 299.866 0 213.57 238.366 386.73 539.426 386.73z" />
<glyph unicode="&#xe91c;" glyph-name="cart-mini" d="M1019.778 673.512l0.062-0.042-144-317.398c-7.106-15.606-22.46-26.754-40.57-27.96l-414.726-27.402 23.984-67.906h451.542c53.028 0 96.016-42.628 96.016-95.242 0-52.59-42.988-95.2-96.016-95.2s-95.992 42.61-95.992 95.2h-448c0-52.59-42.988-95.2-95.996-95.2-53.028 0-96.012 42.61-96.012 95.2 0 52.614 42.984 95.242 96.012 95.242h86.722l-184.796 523.676h-109.934c-26.524 0-48.008 21.316-48.008 47.614 0 26.292 21.484 47.61 48.008 47.61h144c20.96 0 38.546-13.398 45.11-31.942l0.188 0.062 27.964-79.218h710.726c26.504 0 48.004-21.296 48.004-47.59 0-6.98-1.582-13.548-4.288-19.504z" />
<glyph unicode="&#xe91d;" glyph-name="star-light-o" d="M511.992 846.078l102.176-272.496c5.854-15.614 20.78-25.958 37.454-25.958h254.772l-209.344-161.038c-13.504-10.388-18.948-28.192-13.558-44.356l99.902-299.652-247.742 181.676c-7.040 5.164-15.346 7.744-23.654 7.744s-16.614-2.582-23.654-7.744l-247.744-181.674 99.902 299.652c5.388 16.164-0.054 33.968-13.558 44.356l-209.346 161.036h254.746c16.672 0 31.598 10.342 37.452 25.954l102.196 272.5zM511.996 960l-139.652-372.376h-372.348l302.558-232.742-139.652-418.882 349.094 256 349.094-256-139.652 418.882 302.558 232.742h-372.374l-139.626 372.376zM1023.996 587.624v0z" />
<glyph unicode="&#xe91e;" glyph-name="star-light" d="M1023.996 587.624h-372.374l-139.626 372.376-139.652-372.376h-372.348l302.558-232.742-139.652-418.882 349.094 256 349.094-256-139.652 418.882 302.558 232.742z" />
<glyph unicode="&#xe91f;" glyph-name="device-tablet" d="M809.976 38.364h-593.914c-33.94 0-61.438 27.5-61.438 61.442v696.31c0 33.93 27.5 61.44 61.438 61.44h593.914c33.94 0 61.438-27.51 61.438-61.44v-696.31c0-33.942-27.498-61.442-61.438-61.442zM513.298 79.264c17.14 0 31.042 13.9 31.042 31.042 0 17.138-13.9 31.040-31.042 31.040-17.16 0-31.040-13.9-31.040-31.040 0.002-17.142 13.882-31.042 31.040-31.042zM809.976 796.116h-593.914v-614.392h593.914v614.392z" />
<glyph unicode="&#xe920;" glyph-name="device-mobile" d="M707.902 38.368h-389.772c-33.94 0-61.43 27.478-61.43 61.44v696.308c0 33.93 27.49 61.44 61.43 61.44h389.772c33.94 0 61.44-27.51 61.44-61.44v-696.31c0-33.96-27.5-61.438-61.44-61.438zM513.522 79.266c17.060 0 30.88 13.82 30.88 30.88 0 17.040-13.82 30.88-30.88 30.88s-30.88-13.842-30.88-30.88c0-17.060 13.818-30.88 30.88-30.88zM728.38 796.116h-430.718v-614.39h430.718v614.39z" />
<glyph unicode="&#xe921;" glyph-name="device-desktop" d="M962.56 161.292h-307.2v-40.958l81.92-61.442v-20.478h-450.56v20.478l81.92 61.442v40.958h-307.2c-33.94 0-61.44 27.5-61.44 61.44v573.44c0 33.94 27.5 61.44 61.44 61.44h901.12c33.94 0 61.44-27.5 61.44-61.44v-573.442c0-33.938-27.5-61.438-61.44-61.438zM962.56 796.172h-901.12v-512h901.12v512z" />
<glyph unicode="&#xe922;" glyph-name="star-o" d="M512 844.55l131.644-266.762 294.398-42.78-213.012-207.638 50.272-293.194-263.302 138.408-263.304-138.41 50.274 293.194-213.014 207.638 294.402 42.78 131.642 266.764zM512 934.94l-158.206-320.59-353.794-51.414 255.992-249.532-60.416-352.344 316.424 166.334 316.424-166.334-60.414 352.344 255.99 249.532-353.792 51.412-158.208 320.592z" />
<glyph unicode="&#xe923;" glyph-name="star" d="M512 934.94l158.208-320.592 353.792-51.412-255.99-249.532 60.414-352.344-316.424 166.334-316.424-166.334 60.416 352.344-255.992 249.532 353.794 51.412z" />
<glyph unicode="&#xe924;" glyph-name="opencart-extension-and-themes" d="M756.364 728.272c-147.816 0-267.634-119.834-267.634-267.636v-23.272c0-122.108-99-221.092-221.090-221.092-122.092 0-221.092 98.986-221.092 221.092v23.272c0 122.090 99 221.090 221.092 221.090 48.59 0 91.454-16.41 126.848-46.546h-91.94c-12.864 0-23.272-10.44-23.272-23.272 0-12.864 10.41-23.272 23.272-23.272h139.636c12.864 0 23.274 10.41 23.274 23.272v139.636c0 12.834-10.41 23.272-23.274 23.272s-23.272-10.44-23.272-23.272v-76.91c-45.394 35.014-101 53.636-151.272 53.636-147.822 0.002-267.64-119.83-267.64-267.634v-23.272c0-147.82 119.818-267.636 267.636-267.636s267.636 119.816 267.636 267.636v23.272c0 122.090 99 221.090 221.090 221.090 122.092 0 221.092-99 221.092-221.090v-23.272c0-122.108-99-221.092-221.092-221.092-48.59 0-91.454 16.41-126.864 46.546h91.956c12.866 0 23.274 10.408 23.274 23.272 0 12.834-10.41 23.274-23.274 23.274h-139.634c-12.866 0-23.276-10.442-23.276-23.274v-139.636c0-12.864 10.41-23.274 23.276-23.274 12.864 0 23.272 10.41 23.272 23.274v76.91c45.394-35.044 101-53.636 151.272-53.636 147.818 0 267.636 119.816 267.636 267.636v23.272c0 147.804-119.818 267.636-267.636 267.636z" />
<glyph unicode="&#xe925;" glyph-name="opencart-support-you-can-trust-on" d="M855.008 234.594c0 0-86.182 19.894-86.182 107.046 0 76.542 41.242 103.5 54.908 122.090 0 0 28.092 23.834 9.31 100.706 31.294 42.098 38.642 116.538 4.584 195.372-21.366 49.484-47.546 76.576-76.31 92.318-21.182 11.59-45.144 15.856-68.492 15.856-34.792 0-67.878-9.5-88.244-18.674 5.924-11.508 11.576-23.712 17.144-36.712 0.794-1.864 1.326-3.742 2.092-5.622 13.174 5.864 39.59 14.486 69.008 14.486 18.31 0 33.834-3.426 46.15-10.168 14.456-7.908 36-23.772 55.924-69.956 28.372-65.622 20.826-122.182 0.788-149.134-8.258-11.128-11.142-25.366-7.864-38.85 9.424-38.516 3.348-54.698 1.81-57.916-1.208-1.326-2.358-2.706-3.416-4.174-0.942-1.242-4.166-4.728-6.516-7.236-20.092-21.582-57.424-61.69-57.424-142.386 0-96.106 76.59-140.71 119.514-151.71 61.318-21.408 121.116-48.106 133.378-113.376h-147.258c4.22-14.366 7.174-29.818 8.592-46.544h166.264c21.232-0.006 21.232 20.918 21.232 20.918 0 125.682-114.228 164.636-168.992 183.666zM605.95 210.804c0 0-94.54 22.086-94.54 118.902 0 85.040 38.856 114.992 53.856 135.682 0 0 30.79 26.454 10.166 111.856 34.376 46.788 40.834 129.5 3.478 217.098-23.46 54.962-44.204 85.092-75.766 102.592-23.188 12.856-49.5 17.628-75.098 17.628-47.682 0-92.872-16.56-110.908-28.152-52.782-23.226-88.274-44.606-121.554-126.136-27-66.166 5.486-142.788 22.41-180.106-20.622-85.408 8.008-114.78 8.008-114.78 14.992-20.69 53.826-50.644 53.826-135.682 0-96.816-94.508-118.902-94.508-118.902-60.048-21.18-185.32-64.46-185.32-204.096 0 0 0-23.274 23.272-23.274h744.728c23.272 0 23.272 23.274 23.272 23.274 0 139.636-125.28 182.916-185.322 204.096zM48.144 29.98c11.484 79.542 82.304 111.976 150.546 136.182 45.766 11.81 127.682 59.902 127.682 163.544 0 88.692-36.59 131.902-56.242 155.126-2.448 2.894-4.712 5.456-6.456 7.894-0.56 0.712-1.122 1.44-1.698 2.182-1.65 3.144-10.864 24.068 1.258 74.334 2.448 10.052 1.44 20.69-2.834 30.122-11.546 25.476-42.196 93.158-21.72 143.302 27.72 67.97 52.41 81.41 97.182 101.128 2.234 0.976 4.372 2.136 6.432 3.448 11.258 7.258 47.986 20.758 85.75 20.758 20.766 0 38.432-3.956 52.538-11.774 16.744-9.294 32.598-26.484 55.5-80.166 32.394-75.924 24.272-140.72 1.834-171.274-8.124-11.038-10.924-25.136-7.724-38.44 11.288-46.818 2.982-65.71 1.24-69.016-1.376-1.446-2.682-3-3.84-4.606-1.772-2.44-4-5-6.478-7.894-19.636-23.226-56.25-66.438-56.25-155.126 0-103.66 81.962-151.738 127.728-163.546 67.584-23.908 138.992-56.204 150.5-136.182l-694.948 0.004z" />
<glyph unicode="&#xe926;" glyph-name="opencart-powerful-store-management" d="M930.91 961h-837.82c-51.408 0-93.090-41.682-93.090-93.092v-837.826c0-51.4 41.682-93.082 93.090-93.082h837.818c51.41 0 93.090 41.682 93.090 93.084v837.824c0.002 51.41-41.68 93.092-93.088 93.092zM46.546 867.908c0 25.712 20.864 46.546 46.546 46.546h114.756c-10.53-84.182-77.122-150.788-161.302-161.318v114.772zM46.546 706.152c109.954 10.94 197.364 98.356 208.272 208.302h233.908v-34.182c-0.182-0.090-0.334-0.136-0.514-0.22l-47.636-11.878c-16.424-4.128-29.304-16.818-33.666-33.128-8.97-33.462-22.364-65.674-39.788-95.734-8.53-14.66-8.394-32.774 0.334-47.326l25.636-42.712-81.318-81.31c-0.182 0.038-0.348 0.128-0.5 0.242l-42.514 25.478c-7.394 4.432-15.636 6.636-23.94 6.636-8.032 0-16.060-2.090-23.274-6.226-30.060-17.364-62.182-30.682-95.484-39.59-16.334-4.356-29.030-17.25-33.122-33.682l-12-48.014c-0.076-0.166-0.122-0.348-0.182-0.56h-34.212v233.904zM814.544-16.486h-162.334c-29.394 38.94-47.124 87.124-47.124 139.666 0 32.726 6.818 63.834 19.030 92.090l123.91-68.826c-1.94-7.454-3.302-15.174-3.302-23.264 0-43.334 29.726-79.44 69.818-89.788l0.002-49.878zM791.272 123.182c0 25.698 20.866 46.544 46.546 46.544s46.542-20.848 46.542-46.544c0-25.69-20.864-46.544-46.542-46.544s-46.546 20.854-46.546 46.544zM977.456 30.084c0-25.682-20.864-46.568-46.544-46.568h-69.818v49.878c40.090 10.348 69.818 46.454 69.818 89.788 0 8.090-1.364 15.81-3.304 23.264l49.85 27.7v-144.062h-0.002zM977.456 227.378l-72.316-40.198c-16.958 17.858-40.776 29.092-67.318 29.092-26.546 0-50.366-11.238-67.318-29.092l-123.712 68.726c42.060 60.384 111.878 100 191.034 100 52.606 0 100.758-17.874 139.634-47.408l-0.004-81.12zM977.456 363.96c-41.182 23.992-88.544 38.462-139.634 38.462-154.228 0-279.274-125.016-279.274-279.242 0-51.090 14.5-98.46 38.5-139.666h-203.684l-20.030 74.758 43.546 24.182c14.802 8.228 23.984 23.874 23.968 40.796-0.076 34.772 4.424 69.374 13.394 102.81 4.364 16.332-0.47 33.756-12.606 45.506l-35.274 34.134c-0.136 0.124-0.272 0.296-0.364 0.434l57.484 99.598 47.728-13.66c16.244-4.66 33.744-0.122 45.728 11.84 24.47 24.492 52.184 45.72 82.334 63.038 14.682 8.424 23.636 24.19 23.334 41.136l-0.818 49.272v0.53l111.124 29.758 24.318-43.788c4.182-7.522 10.228-13.568 17.41-17.698 6.954-4.022 14.954-6.258 23.272-6.258 34.728 0.016 69.228-4.506 102.5-13.484 12.772-3.386 26.166-1.038 37.044 5.932v-148.39zM977.456 577.234l-24.97-25.834c-37.802 10.144-76.302 15.044-114.576 15.044l-24.864 44.81c-4.636 8.288-11.318 16.212-19.378 20.878-6.636 3.848-14.21 5.47-22.44 3.272l-131.866-35.34c-18.224-4.886-23.316-24.272-24.134-41.802l0.864-50.962c-33.302-19.114-64.318-42.69-92.090-70.486l-48.818 13.97c-16.606 4.666-37.212 3.826-46.636-12.5l-68.272-118.242c-9.41-16.32 0.682-33.636 12.5-46.636l36.5-35.282c-10.152-37.954-15.090-76.582-15-114.99l-44.546-24.742c-15.044-8.416-29-23.576-24.136-41.79l19.59-73.090h-252.094c-25.682 0-46.546 20.886-46.546 46.568v395.646h45c18.848 0 28.788 17.41 34.136 34.136l12.41 49.69c37.818 10.084 73.606 25.128 106.728 44.198l43.954-26.342c8.728-4.5 18.622-8.128 27.954-8.128 7.394 0 14.41 2.264 20.318 8.128l96.546 96.546c13.318 13.334 8.802 33.424 0 48.272l-26.228 43.72c19.274 33.19 34.318 69.098 44.5 107.060l49.274 12.318c16.728 5.34 34.136 15.28 34.136 34.128v45h395.636c25.682 0 46.544-20.834 46.544-46.546l0.004-290.672z" />
<glyph unicode="&#xe927;" glyph-name="opencart-open-source-and-free" d="M744.726 774.818h-651.636c-51.408 0-93.090-41.682-93.090-93.092v-651.644c0-51.402 41.682-93.082 93.090-93.082h651.636c51.41 0 93.092 41.682 93.092 93.084v651.642c0 51.41-41.682 93.092-93.092 93.092zM791.272 30.082c0-25.69-20.848-46.54-46.544-46.54h-651.638c-25.698 0-46.546 20.85-46.546 46.54v512.008h744.728v-512.008zM791.272 588.636h-744.726v93.090c0 25.682 20.848 46.544 46.546 46.544h651.636c25.698 0 46.544-20.864 46.544-46.544v-93.090zM209.456 681.726c-12.842 0-23.274-10.432-23.274-23.274 0-12.878 10.432-23.272 23.274-23.272 12.832 0 23.272 10.394 23.272 23.272-0.002 12.842-10.44 23.274-23.272 23.274zM116.364 681.726c-12.84 0-23.272-10.432-23.272-23.274 0-12.878 10.432-23.272 23.272-23.272 12.842 0 23.274 10.394 23.274 23.272-0.002 12.842-10.432 23.274-23.274 23.274zM930.91 961h-651.638c-51.41 0-93.090-41.682-93.090-93.090v-23.272c0-12.878 10.432-23.274 23.274-23.274 12.832 0 23.272 10.394 23.272 23.274v23.27c0 25.682 20.85 46.544 46.546 46.544h651.636c25.696 0 46.546-20.864 46.546-46.544v-651.634c0-25.726-20.852-46.544-46.546-46.544h-23.272c-12.842 0-23.276-10.41-23.276-23.282 0-12.876 10.434-23.266 23.276-23.266h23.272c51.41 0 93.090 41.66 93.090 93.090v651.636c0 51.41-41.682 93.092-93.090 93.092zM302.544 681.726c-12.84 0-23.272-10.432-23.272-23.274 0-12.878 10.432-23.272 23.272-23.272 12.842 0 23.274 10.394 23.274 23.272 0 12.842-10.432 23.274-23.274 23.274zM721.456 681.726h-325.82c-12.842 0-23.274-10.432-23.274-23.274 0-12.878 10.432-23.272 23.274-23.272h325.818c12.842 0 23.274 10.394 23.274 23.272-0.002 12.842-10.434 23.274-23.272 23.274z" />
<glyph unicode="&#xe928;" glyph-name="maga-shop" d="M0 770h1024v-72h-1024v72zM35.040 665.998v-561.64h955.92v561.64h-955.92zM764.036 563.88h113.462c15.668 0 28.368-12.698 28.368-28.366v-181.542c0-15.664-12.7-28.366-28.368-28.366h-113.462v238.274zM585.332 563.88h153.176v-238.272h-153.176v238.272zM417.974 535.516c0 15.666 12.7 28.366 28.366 28.366h113.462v-238.272h-113.462c-15.666 0-28.366 12.702-28.366 28.366v181.54zM213.742 152.578h-96.444v306.35h96.444v-306.35zM330.042 152.578h-96.444v306.35h96.444v-306.35zM329.292 484.458h-245.962c8.224 70.882 67.264 122.92 138.922 122.92s130.698-52.038 138.922-122.92h-31.882zM937.066 243.35h-550.294v36.876h550.294v-36.876zM1024.71 873.066c-2.844 28.668-27.024 51.058-56.442 51.058h-910.536c-29.416 0-53.598-22.39-56.444-51.058h-0.288v-73.75h1024v73.75h-0.29zM1025 44.79c0 15.668-12.698 28.366-28.366 28.366h-967.268c-15.666 0-28.366-12.698-28.366-28.366v-42.548c0-15.666 12.7-28.366 28.366-28.366h967.27c15.668 0 28.366 12.7 28.366 28.366v42.548z" />
<glyph unicode="&#xe929;" glyph-name="cart" d="M352.012 272.004l527.988 48c68.342 3.618 79.998 64 79.998 64l64 367.992c-1.946 51.452-48 48-48 48l-725.2 0.086c-24.64 82.874-42.78 143.912-42.78 143.912h-159.998c-46.842 0-48-48-48-48-1.242-49.25 48-48 48-48h95.998l159.996-527.988c-41.686-27.124-32-79.998-32-79.998 6.718-77.678 79.998-79.998 79.998-79.998l559.988 32c36.546 1.376 32 32 32 32-1.946 40.476-48 32-48 32l-527.988-32c-28.178-3.876-32 16-32 16-9.952 25.518 16 31.994 16 31.994zM704.004 527.998v-141.806l-175.996-18.796v160.604l175.996-0.002zM528.008 575.998v127.998h175.996v-127.998h-175.996zM870.672 404l-118.668-12.678v136.676h142.364l-23.696-123.998zM903.54 575.998h-151.536v127.998h175.996l-24.46-127.998zM279.264 703.744l56.75 0.25h143.996v-127.998h-162.738c-12.43 41.734-25.444 85.5-38.008 127.748zM331.56 527.998h148.45v-165.738l-95.998-10.258c0 0-23.038 77.256-52.452 175.996zM432.010 32.010c0-44.182-35.816-79.998-79.998-79.998s-79.998 35.816-79.998 79.998c0 44.182 35.816 79.998 79.998 79.998s79.998-35.816 79.998-79.998zM912 32.010c0-44.182-35.816-79.998-79.998-79.998s-79.998 35.816-79.998 79.998c0 44.182 35.816 79.998 79.998 79.998s79.998-35.816 79.998-79.998z" />
<glyph unicode="&#xe92a;" glyph-name="shop" d="M128 960h768v-128h-768v128zM1024 480v208l-112 112h-800l-112-112v-208c0 0 14.68-96 128-96v-320h-48c0 0-76.836-30.96-80-96v-32h1024v32c-3.164 65.040-80 96-80 96h-48v320c113.32 0 128 96 128 96zM640 640h128v-144c0 0-18.758-48-64-48s-64 48-64 48v144zM256 640h128v-144c0 0-16.226-48-64-48s-64 48-64 48v144zM128 448c-51.078 0-64 48-64 48v144h128v-144c0 0-12.93-48-64-48zM576 64h-384v336c0 0 21.008 8.852 32 32 0 0 29.258-48 96-48s96 48 96 48 27.36-48 96-48c0 0 57.68 3.36 64 16v-336zM576 496c0 0-20.938-48-64-48s-64 48-64 48v144h128v-144zM832 64h-192v336c16.25-15.25 64-16 64-16 68.562 0 96 48 96 48 4.39-21.040 32-32 32-32v-336zM832 496v144h128v-144c0 0-14.75-48-64-48s-64 48-64 48zM728 239.5c0-17.954-14.554-32.5-32.5-32.5-17.938 0-32.5 14.546-32.5 32.5s14.562 32.5 32.5 32.5c17.946 0 32.5-14.546 32.5-32.5z" />
</font>
</defs>
</svg>
